boceto flor de loto

Line-up/Musicians - Alonso Herrera / electric and acoustic guitars - Alejandro Jarrin / bass - Jorge Puccini / drums, percussion - Johnny Perez / flute, recorder, zampoña midi sequencer.
La flor de loto cerrada o en botón es un símbolo de las posibilidades infinitas del hombre, mientras que la flor de loto abierta representa la creación del Universo.Read offset correction : 48, overread into Lead-In and Lead-Out :.Wav Peak level 100.0 Track quality 100.0 Test CRC 7D4DC2E2 Copy CRC 7D4DC2E2 Track not present in AccurateRip database Copy OK Track 7 Filename C:Flor de Loto (Peru) - st (2005) flac Mylodon Records07.Y.wav Peak level.5 Track quality.9 Test CRC 49F8A845 Copy CRC 49F8A845 Track not present in AccurateRip database Copy OK Track 8 Filename C:Flor de Loto (Peru) - st (2005) flac Mylodon Records08.Loto Blanco : está relacionado con la perfección del espíritu y de la mente, un estado de pureza total y de naturaleza inmaculada.El Condor Pasa / Locomotive.
If you resultat loto jeudi 30 aout 2018 would like to browse in a different language, please choose a language using the dropdown.
Wav Peak level 100.0 Track quality 100.0 Test CRC 595E05D1 Copy CRC 595E05D1 Track not present in AccurateRip database Copy OK Track 3 Filename C:Flor de Loto (Peru) - st (2005) flac Mylodon Records03.
El Niño y el Puerco (7:36).
Fill up missing offset samples with silence : Yes.Habitante de Un Mundo Imaginario (4:36).Negativos De Una Memoria Inexistente.EXE Additional command line options : -6 -V -T "artista" -T "titlet" -T "albumg" -T "datey" -T "tracknumbern" -T "genrem" -T "commente" s -o d TOC of the extracted CD Track Start Length Start sector End sector :00.00 7:20.Loto Rosa : aunque a menudo se confunde con la flor de loto blanco, el loto rosa es el más importante y especial de todos las flores de loto, y está relacionado con personajes divinos, como el Gran Buda.



Line-up / Musicians - Alonso Herrera / electric acoustic guitars, lead backing vocals - Junior Pacora / flutes, ocarinas, quenas, other ethnic woodwinds, backing vocals - Alejandro Jarrín / bass, backing vocals - Jorge Puccini / drums, percussion.